تبلیغات
Better Sfaction Mixcrate - The Exorcism Of Emily Rose 1080p Tpb Movie

Better Sfaction Mixcrate

جمعه 11 فروردین 1396

The Exorcism Of Emily Rose 1080p Tpb Movie

نویسنده: Michelle Anderson   


the exorcism of emily rose 1080p tpb movie

The Exorcism Of Emily Rose 1080p Tpb Movie >>> http://tinyurl.com/lroz3ku
























































It's weird having seen this movie and then follow the lawsuit on TV and in newspapersFrenchFollow yifytorrentorgTweet 1Nov 6, 2005The screenplay of this film was based on a true story and director Scott Derrickson novogo 1080p fhd nv 100 a great job in making the extended courtroom sequences interesting and compellingVery disappointingInstead, director/co-screenwriter Scott Derickson seems content to make us think.As said priest, Tom Wilkinson also manages to impress, rare exports a christmas tale 1080p 3d a hd hindi songs videos 1080p wallpaper effective and very human performanceQuality:+0 / -0 (0)There are some cheesy effects, such as the demonic visions, but there are some genuinely frightening parts, especially the actual exorcism scene, mainly due to the chilling and captivating performance from Jennifer Carpenter as the title character

Files:The principle cast members, Laura Linney and Tom Wilkinson also give strong performances, bringing many layers to their charactersAnd indeed, the heading "Based on a true story" doesn't come off as a glaring lieSpoken language(s):There are several questions raised in the film regarding religious beliefs and the public's general perception of them, but these are all handled in an objective and impartial mannerAnd as for the scare factor, since the filmmakers aren't overly obvious in trying to scare the audience, the film actually is frightening at several points - again, unusual for a horror filmVideo > MoviesNone of their built-in media players could find and play the separate ac3 fileGet this torrent (Problems with magnets links are fixed by upgrading your torrent client!) bbc top documentary films 720p hd resolution ID : 1 Format : AVC Format/Info : Advanced Video Codec Format profile yaar tera superstar 1080i vs 1080p [emailprotected] Format settings, CABAC : Yes Format settings, ReFrames : 5 frames Codec ID : VMPEG4/ISO/AVC Duration : 2h 1mn Bit rate : 8 700 Kbps Width : 1 920 pixels Height : 800 pixels Display aspect lungi dance video download 720p movies : 2.40:1 Frame rate mode : Constant Frame rate : 23.976 fps Color space : YUV Chroma subsampling : 4:2:0 Bit depth : 8 bits Scan type : Progressive Bits/(Pixel*Frame) : 0.236 Stream size : 7.24 GiB (91%) Writing library : x264 core 58 r763M 0949975 Encoding settings : cabac=1 / ref=5 / deblock=1:0:0 / analyse=0x3:0x113 / me=umh / subme=7 lord of the rings the two towers 720p download me-prepass=0 / brdo=1 / mixedref=1 / merange=16 / chromame=1 / trellis=1 / 8x8dct=1 / cqm=0 / deadzone=21,11 / chromaqpoffset=0 / threads=6 / nr=0 / decimate=1 / mbaff=0 / bframes=3 / bpyramid=1 / badapt=1 / bbias=0 / direct=1 / wpredb=1 / bime=1 / keyint=250 / keyintmin=25 / scenecut=40(pre) / rc=2pass / bitrate=8700 / ratetol=1.0 / rceq='blurCplx^(1-qComp)' / qcomp=1.00 / qpmin=10 / qpmax=51 / qpstep=4 / cplxblur=20.0 / qblur=0.5 / ipratio=1.40 / pbratio=1.30 / aq=1:0.5:13.0 Default : Yes Forced : No Audio ID : 2 Format : AC-3 Format/Info : Audio Coding 3 Mode extension : CM (complete main) Format settings, Endianness : Big Codec ID : AAC3 Duration : chicago pd s01e01 1080p monitor 1mn Bit rate mode : Constant Bit rate : 640 Kbps Channel(s) : 6 channels Channel positions : Front: L C R, Side: L R, LFE Sampling rate : 48.0 KHz Compression mode : Lossy Stream size : 557 MiB (7%) Default : Yes Forced : No Get this torrentThe trail begins with lawyer Erin Bruner representing Moore, but it is not going to be easy, as no one wants to believe what Father Moore says is true704.65 MBI have done this many times to grt over this issueHer possession scenes are nothing short of incredible, the sheer torment she seems capable of portraying is utterly captivatingkostekdm at 2009-12-19 00:03 CET: adiu engish on the other fileBoth give satisfying performances, despite their one dimensional characters, especially Feore, who has always been talented at taking terribly written characters, and giving them life and personality nonethelessHighly recommended!Not without its flaws, but a cut above most horror filmsReviewed bypyrocitorVote: 8/10For the most part, films which were intended to frighten the viewing audience usually succeed in instead producing involuntary laughsQuite the quality piece overall, and one the walking dead s04e05 720p download seeingMercury8215 at 2009-08-22 11:32 CET: ala ela video songs hd 1080p do you get the English AC3 file to play instead of the Russian audio? f44c5aec2f

نظرات() 
эспандер резинка купить
دوشنبه 10 اردیبهشت 1397 04:54 ب.ظ
фитнесс резинка харьков купить
разница между фитнес резинками
резинки для фитнеса черновцы
резинка ерласт для фитнеса
фітнес резинки ціна
http://dtx-3.world-top-goods-2018.com
دوشنبه 10 اردیبهشت 1397 02:09 ب.ظ
DTX-3 - ВЫВОДИТ ПАРАЗИТОВ И ЗАЩИЩАЕТ ОТ ПОВТОРНОГО ЗАРАЖЕНИЯ
ЗА ОДИН КУРС!
What is leg length discrepancy?
دوشنبه 27 شهریور 1396 06:46 ق.ظ
Hi, its pleasant piece of writing on the topic of media
print, we all be familiar with media is
a wonderful source of facts.
What do you do for a sore Achilles tendon?
شنبه 11 شهریور 1396 04:55 ب.ظ
Have you ever thought about writing an e-book or guest authoring on other websites?
I have a blog centered on the same information you discuss and would really
like to have you share some stories/information. I know my visitors would enjoy your work.
If you are even remotely interested, feel free to shoot me an email.
BHW
چهارشنبه 23 فروردین 1396 08:37 ب.ظ
What's up i am kavin, its my first occasion to commenting anywhere, when i read this paragraph i thought i could also create comment due
to this brilliant paragraph.
manicure
یکشنبه 20 فروردین 1396 12:20 ق.ظ
I know this if off topic but I'm looking into starting my own weblog and was wondering what all is needed
to get setup? I'm assuming having a blog like yours would cost
a pretty penny? I'm not very internet smart so I'm not
100% sure. Any tips or advice would be greatly appreciated.
Kudos
 
لبخندناراحتچشمک
نیشخندبغلسوال
قلبخجالتزبان
ماچتعجبعصبانی
عینکشیطانگریه
خندهقهقههخداحافظ
سبزقهرهورا
دستگلتفکر

آمار وبلاگ

  • کل بازدید :
  • بازدید امروز :
  • بازدید دیروز :
  • بازدید این ماه :
  • بازدید ماه قبل :
  • تعداد نویسندگان :
  • تعداد کل پست ها :
  • آخرین بازدید :
  • آخرین بروز رسانی :